DivxDepo.NET - Film indir - Dizi indir - Oyun indir
Hoşgeldin, Ziyaretçi: Üye Ol
DivxDepo.Net'e Hoşgeldiniz :)
Umarım Aradığınızı Bulursunuz.İsteklerinizi İletişim Sayfamızdan bildirebilirsiniz.

DivxDepo.Net Önerdiklerimiz
Konuyu Oyla:
  • Toplam: 0 Oy - Ortalama: 0
  • 1
  • 2
  • 3
  • 4
  • 5
Blade II (2002) 1080p BluRay x264-HDCLASSiCS Konuyu Okuyanlar: 1 Ziyaretçi
#1
Blade_II_2002_1080p_Blu_Ray_x264_HDCLASSi_CS.png

Blade.II.2002.1080p.BluRay.x264-HDCLASSiCS


Kod:
http://uploaded.net/file/xg6rnsh3/Blade.II.2002.1080p.BluRay.x264-HDCLASSiCS.part05.rar
http://uploaded.net/file/gqw655bl/Blade.II.2002.1080p.BluRay.x264-HDCLASSiCS.part07.rar
http://uploaded.net/file/ts4bepd0/Blade.II.2002.1080p.BluRay.x264-HDCLASSiCS.part01.rar
http://uploaded.net/file/69ztxxoc/Blade.II.2002.1080p.BluRay.x264-HDCLASSiCS.part03.rar
http://uploaded.net/file/gptm5oiv/Blade.II.2002.1080p.BluRay.x264-HDCLASSiCS.part04.rar
http://uploaded.net/file/niy973tj/Blade.II.2002.1080p.BluRay.x264-HDCLASSiCS.part08.rar
http://uploaded.net/file/83un6mvf/Blade.II.2002.1080p.BluRay.x264-HDCLASSiCS.part06.rar
http://uploaded.net/file/1cx3xb1v/Blade.II.2002.1080p.BluRay.x264-HDCLASSiCS.part02.rar
http://uploaded.net/file/mwobpdoj/Blade.II.2002.1080p.BluRay.x264-HDCLASSiCS.part09.rar


Kod:
http://uploadrocket.net/cke3u09uws3z/Blade.II.2002.1080p.BluRay.x264-HDCLASSiCS.part01.rar.html
http://uploadrocket.net/vee7702u9uss/Blade.II.2002.1080p.BluRay.x264-HDCLASSiCS.part02.rar.html
http://uploadrocket.net/25fwzaf4ens1/Blade.II.2002.1080p.BluRay.x264-HDCLASSiCS.part03.rar.html
http://uploadrocket.net/3eu83mgm6d8s/Blade.II.2002.1080p.BluRay.x264-HDCLASSiCS.part04.rar.html
http://uploadrocket.net/yq6q1mvft15w/Blade.II.2002.1080p.BluRay.x264-HDCLASSiCS.part05.rar.html
http://uploadrocket.net/1rqywct9ierf/Blade.II.2002.1080p.BluRay.x264-HDCLASSiCS.part06.rar.html
http://uploadrocket.net/d2n36rv3wtk1/Blade.II.2002.1080p.BluRay.x264-HDCLASSiCS.part07.rar.html
http://uploadrocket.net/xvjikqdks26q/Blade.II.2002.1080p.BluRay.x264-HDCLASSiCS.part08.rar.html
http://uploadrocket.net/kr1dqphf7rdo/Blade.II.2002.1080p.BluRay.x264-HDCLASSiCS.part09.rar.html


Kod:
http://rapidgator.net/file/9bdbd312f55afda0b3e1273479bf0e94/Blade.II.2002.1080p.BluRay.x264-HDCLASSiCS.part07.rar.html
http://rapidgator.net/file/e6616c76deaa4a14fba94bbc3d355ad8/Blade.II.2002.1080p.BluRay.x264-HDCLASSiCS.part08.rar.html
http://rapidgator.net/file/88e3abd37c0154457c954e9970a7b3b5/Blade.II.2002.1080p.BluRay.x264-HDCLASSiCS.part06.rar.html
http://rapidgator.net/file/e34eca55acff025f28c08ef9738fac1b/Blade.II.2002.1080p.BluRay.x264-HDCLASSiCS.part05.rar.html
http://rapidgator.net/file/f29d59aafe0038c38c3b8f9d08629396/Blade.II.2002.1080p.BluRay.x264-HDCLASSiCS.part03.rar.html
http://rapidgator.net/file/89c616b050aeaabcb3765180cca080d0/Blade.II.2002.1080p.BluRay.x264-HDCLASSiCS.part01.rar.html
http://rapidgator.net/file/e0112c9f6c6f6007e6a4272e7d9af1f7/Blade.II.2002.1080p.BluRay.x264-HDCLASSiCS.part04.rar.html
http://rapidgator.net/file/dc96ed4b79646cf9362bd6ab631d0f50/Blade.II.2002.1080p.BluRay.x264-HDCLASSiCS.part02.rar.html
http://rapidgator.net/file/8a6f4e4d9dfdb0e1a352ba756a4819b6/Blade.II.2002.1080p.BluRay.x264-HDCLASSiCS.part09.rar.html


Kod:
http://imdb.com/title/tt0187738/


hdc_blade2_1080_s.jpg

Kod:
Video
ID                                       : 1
Format                                   : AVC
Format/Info                              : Advanced Video Codec
Format profile                           : High@L4.1
Format settings, CABAC                   : Yes
Format settings, ReFrames                : 4 frames
Codec ID                                 : V_MPEG4/ISO/AVC
Duration                                 : 1h 56mn
Bit rate                                 : 8 227 Kbps
Width                                    : 1 920 pixels
Height                                   : 1 080 pixels
Display aspect ratio                     : 16:9
Frame rate mode                          : Constant
Frame rate                               : 23.976 fps
Color space                              : YUV
Chroma subsampling                       : 4:2:0
Bit depth                                : 8 bits
Scan type                                : Progressive
Bits/(Pixel*Frame)                       : 0.165
Stream size                              : 6.56 GiB (83%)
Writing library                          : x264 core 68 r1183M f21daff
Encoding settings                        : cabac=1 / ref=4 / deblock=1:0:0 / analyse=0x3:0x133 / me=umh / subme=7 / psy_rd=1.0:0.0 / mixed_ref=1 / me_range=16 / chroma_me=1 / trellis=1 / 8x8dct=1 / cqm=0 / deadzone=21,11 / chroma_qp_offset=-2 / threads=6 / nr=0 / decimate=1 / mbaff=0 / bframes=3 / b_pyramid=1 / b_adapt=1 / b_bias=0 / direct=1 / wpredb=1 / keyint=250 / keyint_min=25 / scenecut=40 / rc=2pass / bitrate=8227 / ratetol=1.0 / qcomp=0.60 / qpmin=10 / qpmax=51 / qpstep=4 / cplxblur=20.0 / qblur=0.5 / ip_ratio=1.40 / pb_ratio=1.30 / aq=1:1.00
Language                                 : English
Default                                  : Yes
Forced                                   : No

Audio
ID                                       : 2
Format                                   : DTS
Format/Info                              : Digital Theater Systems
Mode                                     : 16
Format settings, Endianness              : Big
Codec ID                                 : A_DTS
Duration                                 : 1h 56mn
Bit rate mode                            : Constant
Bit rate                                 : 1 509 Kbps
Channel(s)                               : 6 channels
Channel positions                        : Front: L C R, Side: L R, LFE
Sampling rate                            : 48.0 KHz
Bit depth                                : 24 bits
Compression mode                         : Lossy
Stream size                              : 1.23 GiB (15%)
Title                                    : DTS
Language                                 : English
Default                                  : Yes
Forced                                   : No
193298_o0025.png
Ara
Cevapla


Konu ile Alakalı Benzer Konular
Konular Yazar Yorumlar Okunma Son Yorum
  Ben Hur | 2016 | 720p | BluRay | x264 | GECKOS breath-10 0 61 27-11-2016, Saat: 12:44
Son Yorum: breath-10
  The Whole Truth | 2016 | 720p | BluRay | x264 breath-10 0 181 27-11-2016, Saat: 12:34
Son Yorum: breath-10
  Jason Bourne | 2016 | 720p | BluRay | x264 | SPARKS breath-10 0 47 18-11-2016, Saat: 19:47
Son Yorum: breath-10
  Suicide Squad | 2016 | 1080p | WEB-DL | H264 | AC3 | EVO breath-10 0 49 15-11-2016, Saat: 23:34
Son Yorum: breath-10
  Mechanic Resurrection | 2016 | 720p | BluRay | x264 | DD5 1 | HDC breath-10 0 63 10-11-2016, Saat: 21:10
Son Yorum: breath-10

Hızlı Menü:

Hakkımızda
Sitemizde yer alan tüm videolar, filmler kaynak kodları ile Turbobit, Uploaded, Ul.to v.b. dosya paylaşım sitelerinden alınmaktadır. Telif hakları sorumluluğu bu sitelere aittir. Dosyaların hiç biri sunucularımızda bulunmamaktadır. Yine de hak sahiplerinin talep etmesi halinde istenen içerik siteden kaldırılabilir. İletişim adresi sitemizde mevcuttur. İletişim / Contact (Reklam, Dmca, Telif vs):okaan9999@gmail.com
Forum