DivxDepo.NET - Film indir - Dizi indir - Oyun indir
Hoşgeldin, Ziyaretçi: Üye Ol
DivxDepo.Net'e Hoşgeldiniz :)
Umarım Aradığınızı Bulursunuz.İsteklerinizi İletişim Sayfamızdan bildirebilirsiniz.

DivxDepo.Net Önerdiklerimiz
Konuyu Oyla:
  • Toplam: 0 Oy - Ortalama: 0
  • 1
  • 2
  • 3
  • 4
  • 5
Any Given Sunday (1999) DC 1080p BluRay x264 DTS-FGT Konuyu Okuyanlar: 1 Ziyaretçi
#1
Any_Given_Sunday_1999_DC_1080p_Blu_Ray_x264_DTS_F.png

Any.Given.Sunday.1999.DC.1080p.BluRay.x264.DTS-FGT

Kod:
http://uploaded.net/file/db64ksp6/Any.Given.Sunday.1999.DC.1080p.BluRay.x264.DTS-FGT.part02.rar
http://uploaded.net/file/y7iei2cs/Any.Given.Sunday.1999.DC.1080p.BluRay.x264.DTS-FGT.part04.rar
http://uploaded.net/file/g9ugb4te/Any.Given.Sunday.1999.DC.1080p.BluRay.x264.DTS-FGT.part03.rar
http://uploaded.net/file/htisbv2w/Any.Given.Sunday.1999.DC.1080p.BluRay.x264.DTS-FGT.part06.rar
http://uploaded.net/file/f5tj46no/Any.Given.Sunday.1999.DC.1080p.BluRay.x264.DTS-FGT.part08.rar
http://uploaded.net/file/m7qq7e8i/Any.Given.Sunday.1999.DC.1080p.BluRay.x264.DTS-FGT.part01.rar
http://uploaded.net/file/za3kaqbq/Any.Given.Sunday.1999.DC.1080p.BluRay.x264.DTS-FGT.part05.rar
http://uploaded.net/file/nrzv0rij/Any.Given.Sunday.1999.DC.1080p.BluRay.x264.DTS-FGT.part10.rar
http://uploaded.net/file/14poj0jj/Any.Given.Sunday.1999.DC.1080p.BluRay.x264.DTS-FGT.part09.rar
http://uploaded.net/file/nmcte2c6/Any.Given.Sunday.1999.DC.1080p.BluRay.x264.DTS-FGT.part12.rar
http://uploaded.net/file/k2my4098/Any.Given.Sunday.1999.DC.1080p.BluRay.x264.DTS-FGT.part11.rar
http://uploaded.net/file/exxr0gk4/Any.Given.Sunday.1999.DC.1080p.BluRay.x264.DTS-FGT.part07.rar
http://uploaded.net/file/qm8neb7r/Any.Given.Sunday.1999.DC.1080p.BluRay.x264.DTS-FGT.part13.rar

Kod:
http://uploadrocket.net/ia6ofg8543yg/Any.Given.Sunday.1999.DC.1080p.BluRay.x264.DTS-FGT.part01.rar.html
http://uploadrocket.net/rysxddjj0q9y/Any.Given.Sunday.1999.DC.1080p.BluRay.x264.DTS-FGT.part02.rar.html
http://uploadrocket.net/m69zu7p6vbu8/Any.Given.Sunday.1999.DC.1080p.BluRay.x264.DTS-FGT.part03.rar.html
http://uploadrocket.net/n1ylpjm8gp7d/Any.Given.Sunday.1999.DC.1080p.BluRay.x264.DTS-FGT.part04.rar.html
http://uploadrocket.net/6ucqzlszc9bj/Any.Given.Sunday.1999.DC.1080p.BluRay.x264.DTS-FGT.part05.rar.html
http://uploadrocket.net/aydurkegaq2t/Any.Given.Sunday.1999.DC.1080p.BluRay.x264.DTS-FGT.part06.rar.html
http://uploadrocket.net/bc6kus4z9dzk/Any.Given.Sunday.1999.DC.1080p.BluRay.x264.DTS-FGT.part07.rar.html
http://uploadrocket.net/8hif9ibamyyo/Any.Given.Sunday.1999.DC.1080p.BluRay.x264.DTS-FGT.part08.rar.html
http://uploadrocket.net/ynnnpicyp7g2/Any.Given.Sunday.1999.DC.1080p.BluRay.x264.DTS-FGT.part09.rar.html
http://uploadrocket.net/mu7odfifigmv/Any.Given.Sunday.1999.DC.1080p.BluRay.x264.DTS-FGT.part10.rar.html
http://uploadrocket.net/o2lqoydmf7mn/Any.Given.Sunday.1999.DC.1080p.BluRay.x264.DTS-FGT.part11.rar.html
http://uploadrocket.net/rkypyyrbh0eq/Any.Given.Sunday.1999.DC.1080p.BluRay.x264.DTS-FGT.part12.rar.html
http://uploadrocket.net/995xbaeevvep/Any.Given.Sunday.1999.DC.1080p.BluRay.x264.DTS-FGT.part13.rar.html

Kod:
http://imdb.com/title/tt0146838/

99133464963899699838_thumb.png
28810371316702837575_thumb.png
85904160112564829925_thumb.png
50741047238868157416_thumb.png
45900268529026198279_thumb.png

Kod:
Video
ID                                       : 1
Format                                   : AVC
Format/Info                              : Advanced Video Codec
Format profile                           : High@L4.1
Format settings, CABAC                   : Yes
Format settings, ReFrames                : 5 frames
Codec ID                                 : V_MPEG4/ISO/AVC
Duration                                 : 2h 37mn
Bit rate                                 : 9 682 Kbps
Width                                    : 1 912 pixels
Height                                   : 800 pixels
Display aspect ratio                     : 2.40:1
Frame rate mode                          : Constant
Frame rate                               : 23.976 fps
Color space                              : YUV
Chroma subsampling                       : 4:2:0
Bit depth                                : 8 bits
Scan type                                : Progressive
Bits/(Pixel*Frame)                       : 0.264
Stream size                              : 10.4 GiB (85%)
Writing library                          : x264 core 64 r985 e256ea1
Encoding settings                        : cabac=1 / ref=5 / deblock=1:-3:-3 / analyse=0x3:0x113 / me=umh / subme=6 / psy_rd=1.0:0.0 / brdo=1 / mixed_ref=1 / me_range=16 / chroma_me=1 / trellis=0 / 8x8dct=1 / cqm=2 / deadzone=6,4 / chroma_qp_offset=-2 / threads=6 / nr=0 / decimate=0 / mbaff=0 / bframes=16 / b_pyramid=1 / b_adapt=1 / b_bias=0 / direct=1 / wpredb=1 / bime=1 / keyint=250 / keyint_min=25 / scenecut=40(pre) / rc=2pass / bitrate=9682 / ratetol=1.0 / qcomp=0.60 / qpmin=10 / qpmax=51 / qpstep=4 / cplxblur=20.0 / qblur=0.5 / ip_ratio=1.40 / pb_ratio=1.30 / aq=1:1.00
Language                                 : English
Default                                  : Yes
Forced                                   : No

Audio
ID                                       : 2
Format                                   : DTS
Format/Info                              : Digital Theater Systems
Mode                                     : 16
Format settings, Endianness              : Big
Codec ID                                 : A_DTS
Duration                                 : 2h 37mn
Bit rate mode                            : Constant
Bit rate                                 : 1 510 Kbps
Channel(s)                               : 6 channels
Channel positions                        : Front: L C R, Side: L R, LFE
Sampling rate                            : 48.0 KHz
Bit depth                                : 24 bits
Compression mode                         : Lossy
Stream size                              : 1.66 GiB (13%)
Language                                 : English
Default                                  : Yes
Forced                                   : No
Ara
Cevapla


Konu ile Alakalı Benzer Konular
Konular Yazar Yorumlar Okunma Son Yorum
  Ben Hur | 2016 | 720p | BluRay | x264 | GECKOS breath-10 0 62 27-11-2016, Saat: 12:44
Son Yorum: breath-10
  The Whole Truth | 2016 | 720p | BluRay | x264 breath-10 0 182 27-11-2016, Saat: 12:34
Son Yorum: breath-10
  Jason Bourne | 2016 | 720p | BluRay | x264 | SPARKS breath-10 0 47 18-11-2016, Saat: 19:47
Son Yorum: breath-10
  Suicide Squad | 2016 | 1080p | WEB-DL | H264 | AC3 | EVO breath-10 0 49 15-11-2016, Saat: 23:34
Son Yorum: breath-10
  Mechanic Resurrection | 2016 | 720p | BluRay | x264 | DD5 1 | HDC breath-10 0 65 10-11-2016, Saat: 21:10
Son Yorum: breath-10

Hızlı Menü:

Hakkımızda
Sitemizde yer alan tüm videolar, filmler kaynak kodları ile Turbobit, Uploaded, Ul.to v.b. dosya paylaşım sitelerinden alınmaktadır. Telif hakları sorumluluğu bu sitelere aittir. Dosyaların hiç biri sunucularımızda bulunmamaktadır. Yine de hak sahiplerinin talep etmesi halinde istenen içerik siteden kaldırılabilir. İletişim adresi sitemizde mevcuttur. İletişim / Contact (Reklam, Dmca, Telif vs):okaan9999@gmail.com
Forum