DivxDepo.NET - Film indir - Dizi indir - Oyun indir
Hoşgeldin, Ziyaretçi: Üye Ol
DivxDepo.Net'e Hoşgeldiniz :)
Umarım Aradığınızı Bulursunuz.İsteklerinizi İletişim Sayfamızdan bildirebilirsiniz.

DivxDepo.Net Önerdiklerimiz
Konuyu Oyla:
  • Toplam: 0 Oy - Ortalama: 0
  • 1
  • 2
  • 3
  • 4
  • 5
A Stitich of Life (2015) 1080p BluRay x264 DTS-WiKi Konuyu Okuyanlar: 1 Ziyaretçi
#1
A_Stitch_of_Life_2015_720p_Blu_Ray_x264_Wi_Ki.png

A.Stitich.of.Life.2015.1080p.BluRay.x264.DTS-WiKi

Kod:
http://uploaded.net/file/wttilkho/A.Stitich.of.Life.2015.1080p.BluRay.x264.DTS-WiKi.part09.rar
http://uploaded.net/file/v9iuz8a8/A.Stitich.of.Life.2015.1080p.BluRay.x264.DTS-WiKi.part10.rar
http://uploaded.net/file/afux5a2o/A.Stitich.of.Life.2015.1080p.BluRay.x264.DTS-WiKi.part02.rar
http://uploaded.net/file/lvgnhrd8/A.Stitich.of.Life.2015.1080p.BluRay.x264.DTS-WiKi.part05.rar
http://uploaded.net/file/behnnom7/A.Stitich.of.Life.2015.1080p.BluRay.x264.DTS-WiKi.part12.rar
http://uploaded.net/file/d7kdv5fl/A.Stitich.of.Life.2015.1080p.BluRay.x264.DTS-WiKi.part06.rar
http://uploaded.net/file/onzctept/A.Stitich.of.Life.2015.1080p.BluRay.x264.DTS-WiKi.part07.rar
http://uploaded.net/file/rlxjxc2t/A.Stitich.of.Life.2015.1080p.BluRay.x264.DTS-WiKi.part04.rar
http://uploaded.net/file/lhkx6nwo/A.Stitich.of.Life.2015.1080p.BluRay.x264.DTS-WiKi.part01.rar
http://uploaded.net/file/5m3w5yca/A.Stitich.of.Life.2015.1080p.BluRay.x264.DTS-WiKi.part08.rar
http://uploaded.net/file/d82fjcrr/A.Stitich.of.Life.2015.1080p.BluRay.x264.DTS-WiKi.part03.rar
http://uploaded.net/file/9827fbp4/A.Stitich.of.Life.2015.1080p.BluRay.x264.DTS-WiKi.part11.rar
http://uploaded.net/file/qd7i36ga/A.Stitich.of.Life.2015.1080p.BluRay.x264.DTS-WiKi.part13.rar

Kod:
http://uploadrocket.net/09t8sxx6g426/A.Stitich.of.Life.2015.1080p.BluRay.x264.DTS-WiKi.part01.rar.html
http://uploadrocket.net/b6x1z1jimfmu/A.Stitich.of.Life.2015.1080p.BluRay.x264.DTS-WiKi.part02.rar.html
http://uploadrocket.net/oy91ncox01dr/A.Stitich.of.Life.2015.1080p.BluRay.x264.DTS-WiKi.part03.rar.html
http://uploadrocket.net/krimv8ctzc2c/A.Stitich.of.Life.2015.1080p.BluRay.x264.DTS-WiKi.part04.rar.html
http://uploadrocket.net/foezg59xgcan/A.Stitich.of.Life.2015.1080p.BluRay.x264.DTS-WiKi.part05.rar.html
http://uploadrocket.net/3e9zvnolzgsg/A.Stitich.of.Life.2015.1080p.BluRay.x264.DTS-WiKi.part06.rar.html
http://uploadrocket.net/oz38ovpbnhge/A.Stitich.of.Life.2015.1080p.BluRay.x264.DTS-WiKi.part07.rar.html
http://uploadrocket.net/czwzhmy6njsr/A.Stitich.of.Life.2015.1080p.BluRay.x264.DTS-WiKi.part08.rar.html
http://uploadrocket.net/vl17hkcnphav/A.Stitich.of.Life.2015.1080p.BluRay.x264.DTS-WiKi.part09.rar.html
http://uploadrocket.net/2mk2a7nuegmv/A.Stitich.of.Life.2015.1080p.BluRay.x264.DTS-WiKi.part10.rar.html
http://uploadrocket.net/7cogse3z88s9/A.Stitich.of.Life.2015.1080p.BluRay.x264.DTS-WiKi.part11.rar.html
http://uploadrocket.net/5sqgbz9zsu6r/A.Stitich.of.Life.2015.1080p.BluRay.x264.DTS-WiKi.part12.rar.html
http://uploadrocket.net/58gwfuawnxia/A.Stitich.of.Life.2015.1080p.BluRay.x264.DTS-WiKi.part13.rar.html

Kod:
http://imdb.com/title/tt3574218/

57991327428903536705_thumb.png
28217732447357612185_thumb.png
33434930907470433636_thumb.png
76053096063885513631_thumb.png
38378213989070645027_thumb.png

Kod:
Video
ID                                       : 1
Format                                   : AVC
Format/Info                              : Advanced Video Codec
Format profile                           : High@L4.1
Format settings, CABAC                   : Yes
Format settings, ReFrames                : 4 frames
Codec ID                                 : V_MPEG4/ISO/AVC
Duration                                 : 1h 45mn
Bit rate                                 : 15.0 Mbps
Width                                    : 1 920 pixels
Height                                   : 1 036 pixels
Display aspect ratio                     : 1.85:1
Frame rate mode                          : Constant
Frame rate                               : 23.976 fps
Color space                              : YUV
Chroma subsampling                       : 4:2:0
Bit depth                                : 8 bits
Scan type                                : Progressive
Bits/(Pixel*Frame)                       : 0.315
Stream size                              : 10.8 GiB (89%)
Writing library                          : x264 core 142 r2431+42 c69a006 tMod [8-bit@all X86_64]
Encoding settings                        : cabac=1 / ref=4 / deblock=1:-3:-3 / analyse=0x3:0x133 / me=umh / subme=11 / psy=1 / fade_compensate=0.00 / psy_rd=1.05:0.10 / mixed_ref=1 / me_range=64 / chroma_me=1 / trellis=2 / 8x8dct=1 / cqm=0 / deadzone=21,11 / fast_pskip=0 / chroma_qp_offset=-3 / threads=12 / lookahead_threads=3 / sliced_threads=0 / nr=0 / decimate=0 / interlaced=0 / bluray_compat=0 / constrained_intra=0 / fgo=0 / bframes=10 / b_pyramid=2 / b_adapt=2 / b_bias=0 / direct=3 / weightb=1 / open_gop=0 / weightp=2 / keyint=250 / keyint_min=23 / scenecut=40 / intra_refresh=0 / rc_lookahead=150 / rc=2pass / mbtree=1 / bitrate=15000 / ratetol=1.0 / qcomp=0.75 / qpmin=0:0:0 / qpmax=69:69:69 / qpstep=4 / cplxblur=20.0 / qblur=0.5 / vbv_maxrate=50000 / vbv_bufsize=50000 / nal_hrd=none / filler=0 / ip_ratio=1.40 / aq=1:0.75 / aq-sensitivity=10.00 / aq-factor=1.00:1.00:1.00 / aq2=0 / aq3=0
Language                                 : Japanese
Default                                  : Yes
Forced                                   : No
Color range                              : Limited
Matrix coefficients                      : BT.709

Audio
ID                                       : 2
Format                                   : DTS
Format/Info                              : Digital Theater Systems
Mode                                     : 16
Format settings, Endianness              : Big
Codec ID                                 : A_DTS
Duration                                 : 1h 45mn
Bit rate mode                            : Constant
Bit rate                                 : 1 509 Kbps
Channel(s)                               : 6 channels
Channel positions                        : Front: L C R, Side: L R, LFE
Sampling rate                            : 48.0 KHz
Bit depth                                : 16 bits
Compression mode                         : Lossy
Stream size                              : 1.11 GiB (9%)
Language                                 : Japanese
Default                                  : Yes
Forced                                   : No

Text
ID                                       : 3
Format                                   : ASS
Codec ID                                 : S_TEXT/ASS
Codec ID/Info                            : Advanced Sub Station Alpha
Compression mode                         : Lossless
Title                                    : CHT
Language                                 : Chinese
Default                                  : No
Forced                                   : No
Ara
Cevapla


Konu ile Alakalı Benzer Konular
Konular Yazar Yorumlar Okunma Son Yorum
  Ben Hur | 2016 | 720p | BluRay | x264 | GECKOS breath-10 0 60 27-11-2016, Saat: 12:44
Son Yorum: breath-10
  The Whole Truth | 2016 | 720p | BluRay | x264 breath-10 0 179 27-11-2016, Saat: 12:34
Son Yorum: breath-10
  Jason Bourne | 2016 | 720p | BluRay | x264 | SPARKS breath-10 0 46 18-11-2016, Saat: 19:47
Son Yorum: breath-10
  Suicide Squad | 2016 | 1080p | WEB-DL | H264 | AC3 | EVO breath-10 0 45 15-11-2016, Saat: 23:34
Son Yorum: breath-10
  Mechanic Resurrection | 2016 | 720p | BluRay | x264 | DD5 1 | HDC breath-10 0 63 10-11-2016, Saat: 21:10
Son Yorum: breath-10

Hızlı Menü:

Hakkımızda
Sitemizde yer alan tüm videolar, filmler kaynak kodları ile Turbobit, Uploaded, Ul.to v.b. dosya paylaşım sitelerinden alınmaktadır. Telif hakları sorumluluğu bu sitelere aittir. Dosyaların hiç biri sunucularımızda bulunmamaktadır. Yine de hak sahiplerinin talep etmesi halinde istenen içerik siteden kaldırılabilir. İletişim adresi sitemizde mevcuttur. İletişim / Contact (Reklam, Dmca, Telif vs):okaan9999@gmail.com
Forum