DivxDepo.NET - Film indir - Dizi indir - Oyun indir
Hoşgeldin, Ziyaretçi: Üye Ol
DivxDepo.Net'e Hoşgeldiniz :)
Umarım Aradığınızı Bulursunuz.İsteklerinizi İletişim Sayfamızdan bildirebilirsiniz.

DivxDepo.Net Önerdiklerimiz
Konuyu Oyla:
  • Toplam: 0 Oy - Ortalama: 0
  • 1
  • 2
  • 3
  • 4
  • 5
A Christmas Carol (1951) 1080p BluRay x264-iOZO Konuyu Okuyanlar: 1 Ziyaretçi
#1
A_Christmas_Carol_1951_1080p_Blu_Ray_x264_i_OZO.png

A.Christmas.Carol.1951.1080p.BluRay.x264-iOZO

Kod:
http://uploaded.net/file/w0ukn4lv/A.Christmas.Carol.1951.1080p.BluRay.x264-iOZO.part07.rar
http://uploaded.net/file/gyk06nax/A.Christmas.Carol.1951.1080p.BluRay.x264-iOZO.part04.rar
http://uploaded.net/file/3qb7slwa/A.Christmas.Carol.1951.1080p.BluRay.x264-iOZO.part06.rar
http://uploaded.net/file/yw8l5yef/A.Christmas.Carol.1951.1080p.BluRay.x264-iOZO.part08.rar
http://uploaded.net/file/iq11lx8x/A.Christmas.Carol.1951.1080p.BluRay.x264-iOZO.part05.rar
http://uploaded.net/file/rne2advc/A.Christmas.Carol.1951.1080p.BluRay.x264-iOZO.part01.rar
http://uploaded.net/file/xv88o835/A.Christmas.Carol.1951.1080p.BluRay.x264-iOZO.part03.rar
http://uploaded.net/file/tevkpje4/A.Christmas.Carol.1951.1080p.BluRay.x264-iOZO.part02.rar
http://uploaded.net/file/gimbn99g/A.Christmas.Carol.1951.1080p.BluRay.x264-iOZO.part09.rar

Kod:
http://uploadrocket.net/xhs83lk2sjo8/A.Christmas.Carol.1951.1080p.BluRay.x264-iOZO.part01.rar.html
http://uploadrocket.net/l8f0xn3pn8mp/A.Christmas.Carol.1951.1080p.BluRay.x264-iOZO.part02.rar.html
http://uploadrocket.net/uavrpuljlpc3/A.Christmas.Carol.1951.1080p.BluRay.x264-iOZO.part03.rar.html
http://uploadrocket.net/wujj87eo3f8j/A.Christmas.Carol.1951.1080p.BluRay.x264-iOZO.part04.rar.html
http://uploadrocket.net/wd3tqtdbjkod/A.Christmas.Carol.1951.1080p.BluRay.x264-iOZO.part05.rar.html
http://uploadrocket.net/wi9v1k69vo7g/A.Christmas.Carol.1951.1080p.BluRay.x264-iOZO.part06.rar.html
http://uploadrocket.net/fpy5x0gbfos5/A.Christmas.Carol.1951.1080p.BluRay.x264-iOZO.part07.rar.html
http://uploadrocket.net/ax0stw6iv9n5/A.Christmas.Carol.1951.1080p.BluRay.x264-iOZO.part08.rar.html
http://uploadrocket.net/dnt1oxz74894/A.Christmas.Carol.1951.1080p.BluRay.x264-iOZO.part09.rar.html

Kod:
http://rapidgator.net/file/f9fbd7477854ca101fbebaa021349de5/A.Christmas.Carol.1951.1080p.BluRay.x264-iOZO.part02.rar.html
http://rapidgator.net/file/f3d7a293d3a2688026b738423d447f9a/A.Christmas.Carol.1951.1080p.BluRay.x264-iOZO.part04.rar.html
http://rapidgator.net/file/eaad95ecea762b59d4a5bbd7e2cbc136/A.Christmas.Carol.1951.1080p.BluRay.x264-iOZO.part07.rar.html
http://rapidgator.net/file/c6df173951bf3b76271621a5620471c2/A.Christmas.Carol.1951.1080p.BluRay.x264-iOZO.part05.rar.html
http://rapidgator.net/file/49c7b4ac060acedeb70f6615aca261e9/A.Christmas.Carol.1951.1080p.BluRay.x264-iOZO.part06.rar.html
http://rapidgator.net/file/78452a6afded1fbc70f9b234104adefb/A.Christmas.Carol.1951.1080p.BluRay.x264-iOZO.part01.rar.html
http://rapidgator.net/file/26da10886cc2a0b7671dcb9b8552843c/A.Christmas.Carol.1951.1080p.BluRay.x264-iOZO.part03.rar.html
http://rapidgator.net/file/f4e89873592e1713186682689da11f53/A.Christmas.Carol.1951.1080p.BluRay.x264-iOZO.part08.rar.html
http://rapidgator.net/file/bab630209fa1f54e5b76c171c8c55a43/A.Christmas.Carol.1951.1080p.BluRay.x264-iOZO.part09.rar.html

Kod:
http://imdb.com/title/tt0044008/

A_Christmas_Carol_1951_1080p_Blu_Ray_x264_i_OZO_s.jpg

Kod:
Video
ID                                       : 1
Format                                   : AVC
Format/Info                              : Advanced Video Codec
Format profile                           : High@L4.1
Format settings, CABAC                   : Yes
Format settings, ReFrames                : 4 frames
Codec ID                                 : V_MPEG4/ISO/AVC
Duration                                 : 1h 26mn
Bit rate                                 : 12.6 Mbps
Width                                    : 1 440 pixels
Height                                   : 1 064 pixels
Display aspect ratio                     : 4:3
Frame rate mode                          : Constant
Frame rate                               : 23.976 fps
Color space                              : YUV
Chroma subsampling                       : 4:2:0
Bit depth                                : 8 bits
Scan type                                : Progressive
Bits/(Pixel*Frame)                       : 0.344
Stream size                              : 7.48 GiB (94%)
Writing library                          : x264 core 78 r1318 fe83a90
Encoding settings                        : cabac=1 / ref=4 / deblock=1:-3:-3 / analyse=0x3:0x113 / me=umh / subme=9 / psy=1 / psy_rd=1.0:0.0 / mixed_ref=1 / me_range=24 / chroma_me=1 / trellis=2 / 8x8dct=1 / cqm=0 / deadzone=21,11 / chroma_qp_offset=-2 / threads=6 / nr=0 / decimate=1 / mbaff=0 / constrained_intra=0 / bframes=3 / b_pyramid=0 / b_adapt=2 / b_bias=0 / direct=3 / wpredb=1 / keyint=250 / keyint_min=25 / scenecut=40 / rc_lookahead=60 / rc=2pass / mbtree=1 / bitrate=12643 / ratetol=1.0 / qcomp=0.60 / qpmin=10 / qpmax=51 / qpstep=4 / cplxblur=20.0 / qblur=0.5 / vbv_maxrate=50000 / vbv_bufsize=50000 / ip_ratio=1.40 / aq=1:1.00
Language                                 : English
Default                                  : No
Forced                                   : No

Audio #1
ID                                       : 2
Format                                   : AC-3
Format/Info                              : Audio Coding 3
Mode extension                           : CM (complete main)
Format settings, Endianness              : Big
Codec ID                                 : A_AC3
Duration                                 : 1h 26mn
Bit rate mode                            : Constant
Bit rate                                 : 448 Kbps
Channel(s)                               : 6 channels
Channel positions                        : Front: L C R, Side: L R, LFE
Sampling rate                            : 48.0 KHz
Compression mode                         : Lossy
Stream size                              : 277 MiB (3%)
Language                                 : English
Default                                  : Yes
Forced                                   : No

Audio #2
ID                                       : 3
Format                                   : Vorbis
Format settings, Floor                   : 1
Codec ID                                 : A_VORBIS
Duration                                 : 1h 26mn
Bit rate mode                            : Variable
Bit rate                                 : 80.0 Kbps
Channel(s)                               : 2 channels
Sampling rate                            : 48.0 KHz
Compression mode                         : Lossy
Stream size                              : 49.5 MiB (1%)
Title                                    : Commentary
Writing library                          : libVorbis 20090709 (UTC 2009-07-09)
Language                                 : English
Default                                  : No
Forced                                   : No

Text
ID                                       : 4
Format                                   : UTF-8
Codec ID                                 : S_TEXT/UTF8
Codec ID/Info                            : UTF-8 Plain Text
Language                                 : English
Default                                  : No
Forced                                   : No
Ara
Cevapla


Konu ile Alakalı Benzer Konular
Konular Yazar Yorumlar Okunma Son Yorum
  Ben Hur | 2016 | 720p | BluRay | x264 | GECKOS breath-10 0 62 27-11-2016, Saat: 12:44
Son Yorum: breath-10
  The Whole Truth | 2016 | 720p | BluRay | x264 breath-10 0 182 27-11-2016, Saat: 12:34
Son Yorum: breath-10
  Jason Bourne | 2016 | 720p | BluRay | x264 | SPARKS breath-10 0 48 18-11-2016, Saat: 19:47
Son Yorum: breath-10
  Suicide Squad | 2016 | 1080p | WEB-DL | H264 | AC3 | EVO breath-10 0 51 15-11-2016, Saat: 23:34
Son Yorum: breath-10
  Mechanic Resurrection | 2016 | 720p | BluRay | x264 | DD5 1 | HDC breath-10 0 65 10-11-2016, Saat: 21:10
Son Yorum: breath-10

Hızlı Menü:

Hakkımızda
Sitemizde yer alan tüm videolar, filmler kaynak kodları ile Turbobit, Uploaded, Ul.to v.b. dosya paylaşım sitelerinden alınmaktadır. Telif hakları sorumluluğu bu sitelere aittir. Dosyaların hiç biri sunucularımızda bulunmamaktadır. Yine de hak sahiplerinin talep etmesi halinde istenen içerik siteden kaldırılabilir. İletişim adresi sitemizde mevcuttur. İletişim / Contact (Reklam, Dmca, Telif vs):okaan9999@gmail.com
Forum