DivxDepo.NET - Film indir - Dizi indir - Oyun indir
Hoşgeldin, Ziyaretçi: Üye Ol
DivxDepo.Net'e Hoşgeldiniz :)
Umarım Aradığınızı Bulursunuz.İsteklerinizi İletişim Sayfamızdan bildirebilirsiniz.

DivxDepo.Net Önerdiklerimiz
Konuyu Oyla:
  • Toplam: 0 Oy - Ortalama: 0
  • 1
  • 2
  • 3
  • 4
  • 5
2012 (2009) 1080p BluRay x264 DTS-METiS Konuyu Okuyanlar: 1 Ziyaretçi
#1
2012_2009_1080p_Blu_Ray_x264_DTS_METi_S.png

2012.2009.1080p.BluRay.x264.DTS-METiS


Kod:
http://uploaded.net/file/503bpm3l/2012.2009.1080p.BluRay.x264.DTS-METiS.part1.rar
http://uploaded.net/file/l5b6n56n/2012.2009.1080p.BluRay.x264.DTS-METiS.part4.rar
http://uploaded.net/file/7k8mcjej/2012.2009.1080p.BluRay.x264.DTS-METiS.part6.rar
http://uploaded.net/file/gv5xnyj6/2012.2009.1080p.BluRay.x264.DTS-METiS.part3.rar
http://uploaded.net/file/170s1c4q/2012.2009.1080p.BluRay.x264.DTS-METiS.part2.rar
http://uploaded.net/file/laga7gvw/2012.2009.1080p.BluRay.x264.DTS-METiS.part5.rar
http://uploaded.net/file/inaj1tuu/2012.2009.1080p.BluRay.x264.DTS-METiS.part7.rar


Kod:
http://rapidgator.net/file/c080623bc8f90f635e2d791ab1981ba2/2012.2009.1080p.BluRay.x264.DTS-METiS.part2.rar.html
http://rapidgator.net/file/3b9d88928a30859d63d69301f79fc1d0/2012.2009.1080p.BluRay.x264.DTS-METiS.part5.rar.html
http://rapidgator.net/file/3e93041a953b72f5ed8256f9ba416195/2012.2009.1080p.BluRay.x264.DTS-METiS.part3.rar.html
http://rapidgator.net/file/6e7ae3ecd8167cde9d5d821152ecf325/2012.2009.1080p.BluRay.x264.DTS-METiS.part6.rar.html
http://rapidgator.net/file/ac1febd58469412034fe62b3c57b1cd1/2012.2009.1080p.BluRay.x264.DTS-METiS.part1.rar.html
http://rapidgator.net/file/6b3e3f17261d0ef8117fb3f0d528a1ea/2012.2009.1080p.BluRay.x264.DTS-METiS.part4.rar.html
http://rapidgator.net/file/44391905822be78b5c8d666b0091aceb/2012.2009.1080p.BluRay.x264.DTS-METiS.part7.rar.html


Kod:
http://imdb.com/title/tt1190080/


11025002130927330409_thumb.png
36673569731516260198_thumb.png
71288652674189480680_thumb.png
59712702498338386957_thumb.png
36188349537745197365_thumb.png
23898079358591840075_thumb.png

Kod:
Video
ID                                       : 1
Format                                   : AVC
Format/Info                              : Advanced Video Codec
Format profile                           : High@L4.1
Format settings, CABAC                   : Yes
Format settings, ReFrames                : 5 frames
Codec ID                                 : V_MPEG4/ISO/AVC
Duration                                 : 2h 37mn
Bit rate                                 : 10.4 Mbps
Width                                    : 1 920 pixels
Height                                   : 800 pixels
Display aspect ratio                     : 2.40:1
Frame rate mode                          : Constant
Frame rate                               : 23.976 fps
Color space                              : YUV
Chroma subsampling                       : 4:2:0
Bit depth                                : 8 bits
Scan type                                : Progressive
Bits/(Pixel*Frame)                       : 0.282
Stream size                              : 11.2 GiB (85%)
Writing library                          : x264 core 80 r1376 3feaec2
Encoding settings                        : cabac=1 / ref=5 / deblock=1:0:0 / analyse=0x3:0x133 / me=umh / subme=7 / psy=1 / psy_rd=1.0:0.0 / mixed_ref=1 / me_range=16 / chroma_me=1 / trellis=1 / 8x8dct=1 / cqm=0 / deadzone=21,11 / fast_pskip=0 / chroma_qp_offset=-2 / threads=12 / sliced_threads=0 / nr=0 / decimate=1 / mbaff=0 / constrained_intra=0 / bframes=3 / b_pyramid=0 / b_adapt=1 / b_bias=0 / direct=1 / wpredb=1 / wpredp=2 / keyint=250 / keyint_min=25 / scenecut=40 / rc_lookahead=40 / rc=2pass / mbtree=1 / bitrate=10392 / ratetol=1.0 / qcomp=0.60 / qpmin=10 / qpmax=51 / qpstep=4 / cplxblur=20.0 / qblur=0.5 / ip_ratio=1.40 / aq=1:1.00
Language                                 : English
Default                                  : Yes
Forced                                   : No

Audio
ID                                       : 2
Format                                   : DTS
Format/Info                              : Digital Theater Systems
Mode                                     : 16
Format settings, Endianness              : Big
Codec ID                                 : A_DTS
Duration                                 : 2h 37mn
Bit rate mode                            : Constant
Bit rate                                 : 1 509 Kbps
Channel(s)                               : 6 channels
Channel positions                        : Front: L C R, Side: L R, LFE
Sampling rate                            : 48.0 KHz
Bit depth                                : 24 bits
Compression mode                         : Lossy
Stream size                              : 1.66 GiB (13%)
Language                                 : English
Default                                  : Yes
Forced                                   : No

Text #1
ID                                       : 3
Format                                   : UTF-8
Codec ID                                 : S_TEXT/UTF8
Codec ID/Info                            : UTF-8 Plain Text
Title                                    : english
Language                                 : English
Default                                  : Yes
Forced                                   : No

Text #2
ID                                       : 4
Format                                   : UTF-8
Codec ID                                 : S_TEXT/UTF8
Codec ID/Info                            : UTF-8 Plain Text
Title                                    : forced
Language                                 : English
Default                                  : No
Forced                                   : No
Ara
Cevapla


Konu ile Alakalı Benzer Konular
Konular Yazar Yorumlar Okunma Son Yorum
  Ben Hur | 2016 | 720p | BluRay | x264 | GECKOS breath-10 0 45 27-11-2016, Saat: 12:44
Son Yorum: breath-10
  The Whole Truth | 2016 | 720p | BluRay | x264 breath-10 0 173 27-11-2016, Saat: 12:34
Son Yorum: breath-10
  Jason Bourne | 2016 | 720p | BluRay | x264 | SPARKS breath-10 0 37 18-11-2016, Saat: 19:47
Son Yorum: breath-10
  Suicide Squad | 2016 | 1080p | WEB-DL | H264 | AC3 | EVO breath-10 0 39 15-11-2016, Saat: 23:34
Son Yorum: breath-10
  Mechanic Resurrection | 2016 | 720p | BluRay | x264 | DD5 1 | HDC breath-10 0 56 10-11-2016, Saat: 21:10
Son Yorum: breath-10

Hızlı Menü:

Hakkımızda
Sitemizde yer alan tüm videolar, filmler kaynak kodları ile Turbobit, Uploaded, Ul.to v.b. dosya paylaşım sitelerinden alınmaktadır. Telif hakları sorumluluğu bu sitelere aittir. Dosyaların hiç biri sunucularımızda bulunmamaktadır. Yine de hak sahiplerinin talep etmesi halinde istenen içerik siteden kaldırılabilir. İletişim adresi sitemizde mevcuttur. İletişim / Contact (Reklam, Dmca, Telif vs):okaan9999@gmail.com
Forum